Blademaster666 Descargas gratis

Descargar LaLiga - F.C Barcelona VS Atlético de Madrid (2018/19)[HDTV 1080p][Catellano][VS] Gratis
Categoria: Deportes

Agregado: 12-04-2019, 17:16

Descargado: : 108
Disponible Banner o Imagen


LaLiga - F.C Barcelona VS Atlético de Madrid (2018/19)[HDTV 1080p][Catellano][VS]


LaLiga - F.C Barcelona VS Atlético de Madrid (2018/19)[HDTV 1080p][Catellano][VS]



Fútbol: LaLiga
País: España
Cantidad de equipos: 20
Campeón actual: Fútbol Club Barcelona (1018)
Director ejecutivo: Javier Gómez (2013–)
Primer campeón: F. C. Barcelona
Más campeonatos: Real Madrid C. F. (33)





Calidad: HDTV 1080p
Emisión: Movistar+
Contenido: Previo, Partido, Post partido
Formato: MKV
Resolución: 1920x1980p
Video: AVC x264
Audio: Castellano AC3 48000 Hz
Comentaristas: Carlos Martínez, Robinson, Maldini
Tamaño: 9 GB
Duración: 3 Horas
Subtítulos: No





Descomprimir con winrar, 7zip o programa similar



MediaInfo:



General
Unique ID                   : 232340864180380650698459417048255432932 (0xAECB3906FEA312ABBCAFED8AD1EE08E4)
Complete name               : LaLiga.F.C.Barcel0na.Vs.Atletic0.De.Madrid.HDTV.1O8O.mkv
Format                      : Matroska
Format version              : Version 4 / Version 2
File size                   : 8.54 GiB
Duration                    : 2 h 59 min
Overall bit rate            : 6 798 kb/s
Movie name                  : eXvagos / d22
Encoded date                : UTC 2019-04-07 08:01:52
Writing application         : mkvmerge v6.6.0 ('The Edge Of The In Between') built on Dec  1 2013 17:55:00
Writing library             : libebml v1.3.0 + libmatroska v1.4.1

Video
ID                          : 1
Format                      : AVC
Format/Info                 : Advanced Video Codec
Format profile              : High@L4
Format settings             : CABAC / 4 Ref Frames
Format settings, CABAC      : Yes
Format settings, RefFrames  : 4 frames
Codec ID                    : V_MPEG4/ISO/AVC
Duration                    : 2 h 59 min
Bit rate                    : 6 470 kb/s
Width                       : 1 920 pixels
Height                      : 1 080 pixels
Display aspect ratio        : 16:9
Frame rate mode             : Constant
Frame rate                  : 25.000 FPS
Color space                 : YUV
Chroma subsampling          : 4:2:0
Bit depth                   : 8 bits
Scan type                   : MBAFF
Scan type, store method     : Interleaved fields
Scan order                  : Top Field First
Bits/(Pixel*Frame)          : 0.125
Stream size                 : 8.13 GiB (95%)
Language                    : Spanish
Default                     : Yes
Forced                      : No
Color range                 : Limited
Color primaries             : BT.709
Transfer characteristics    : BT.709
Matrix coefficients         : BT.709

Audio
ID                          : 2
Format                      : AC-3
Format/Info                 : Audio Coding 3
Format settings, Endianness : Big
Codec ID                    : A_AC3
Duration                    : 2 h 59 min
Bit rate mode               : Constant
Bit rate                    : 192 kb/s
Channel(s)                  : 2 channels
Channel positions           : Front: L R
Sampling rate               : 48.0 kHz
Frame rate                  : 31.250 FPS (1536 SPF)
Bit depth                   : 16 bits
Compression mode            : Lossy
Stream size                 : 247 MiB (3%)
Title                       : eXvagos / d22
Language                    : Spanish
Service kind                : Complete Main
Default                     : Yes
Forced                      : No



LaLiga - F.C Barcelona VS Atlético de Madrid (2018/19)[HDTV 1080p][Catellano][VS]



El Barcelona cantará virtualmente el alirón si logra poner 11 puntos de por medio con el Atlético con tan solo 21 en liza. Los colchoneros necesitan vencer en el Camp Nou para poner algo de pimienta al final del campeonato.

SE RUEGA:

No comentar el resultado del partido hasta pasados unos días porque hay quien no quiere saber el resultado hasta que vea el partido.



LaLiga - F.C Barcelona VS Atlético de Madrid (2018/19)[HDTV 1080p][Catellano][VS]


LaLiga - F.C Barcelona VS Atlético de Madrid (2018/19)[HDTV 1080p][Catellano][VS]


Se recomienda descargar con JDownloader v2, Mipony o programa similar

LaLiga - F.C Barcelona VS Atlético de Madrid (2018/19)[HDTV 1080p][Catellano][VS]

Descarga todo de un servidor FREE + 1 parte NO FREE

LaLiga - F.C Barcelona VS Atlético de Madrid (2018/19)[HDTV 1080p][Catellano][VS]

LaLiga - F.C Barcelona VS Atlético de Madrid (2018/19)[HDTV 1080p][Catellano][VS]
LaLiga - F.C Barcelona VS Atlético de Madrid (2018/19)[HDTV 1080p][Catellano][VS]
LaLiga - F.C Barcelona VS Atlético de Madrid (2018/19)[HDTV 1080p][Catellano][VS]
LaLiga - F.C Barcelona VS Atlético de Madrid (2018/19)[HDTV 1080p][Catellano][VS]

LaLiga - F.C Barcelona VS Atlético de Madrid (2018/19)[HDTV 1080p][Catellano][VS]


https://lupaste.com/?v=32311


Visita mi perfil para ver todos mis aportes


LaLiga - F.C Barcelona VS Atlético de Madrid (2018/19)[HDTV 1080p][Catellano][VS]



disponible




Para Descargar Mas Rapido Te Recomiendo Comprar una Cuenta Premium
TAGS: Descargar LaLiga - F.C Barcelona VS Atlético de Madrid (2018/19)[HDTV 1080p][Catellano][VS] Castellano - Descargar LaLiga - F.C Barcelona VS Atlético de Madrid (2018/19)[HDTV 1080p][Catellano][VS] mega - Descargar LaLiga - F.C Barcelona VS Atlético de Madrid (2018/19)[HDTV 1080p][Catellano][VS] en Mega - Descargar LaLiga - F.C Barcelona VS Atlético de Madrid (2018/19)[HDTV 1080p][Catellano][VS] gratis - Descargar LaLiga - F.C Barcelona VS Atlético de Madrid (2018/19)[HDTV 1080p][Catellano][VS] free - Descargar LaLiga - F.C Barcelona VS Atlético de Madrid (2018/19)[HDTV 1080p][Catellano][VS] online - Descargar LaLiga - F.C Barcelona VS Atlético de Madrid (2018/19)[HDTV 1080p][Catellano][VS] - Bajar LaLiga - F.C Barcelona VS Atlético de Madrid (2018/19)[HDTV 1080p][Catellano][VS] por mega - Bajar película LaLiga - F.C Barcelona VS Atlético de Madrid (2018/19)[HDTV 1080p][Catellano][VS] - descargar programa LaLiga - F.C Barcelona VS Atlético de Madrid (2018/19)[HDTV 1080p][Catellano][VS] online - Descargar Comic LaLiga - F.C Barcelona VS Atlético de Madrid (2018/19)[HDTV 1080p][Catellano][VS] castellano - Descargar Documental LaLiga - F.C Barcelona VS Atlético de Madrid (2018/19)[HDTV 1080p][Catellano][VS] castellano - Bajar Curso LaLiga - F.C Barcelona VS Atlético de Madrid (2018/19)[HDTV 1080p][Catellano][VS] subtitulos - Ver película LaLiga - F.C Barcelona VS Atlético de Madrid (2018/19)[HDTV 1080p][Catellano][VS] original - Ver película LaLiga - F.C Barcelona VS Atlético de Madrid (2018/19)[HDTV 1080p][Catellano][VS] vk - Ver película LaLiga - F.C Barcelona VS Atlético de Madrid (2018/19)[HDTV 1080p][Catellano][VS] - Ver capítulo LaLiga - F.C Barcelona VS Atlético de Madrid (2018/19)[HDTV 1080p][Catellano][VS] castellano - Ver capítulo LaLiga - F.C Barcelona VS Atlético de Madrid (2018/19)[HDTV 1080p][Catellano][VS] español - Ver película LaLiga - F.C Barcelona VS Atlético de Madrid (2018/19)[HDTV 1080p][Catellano][VS] español - Descargar LaLiga - F.C Barcelona VS Atlético de Madrid (2018/19)[HDTV 1080p][Catellano][VS] gratis - Descargar LaLiga - F.C Barcelona VS Atlético de Madrid (2018/19)[HDTV 1080p][Catellano][VS] mega - Ver película LaLiga - F.C Barcelona VS Atlético de Madrid (2018/19)[HDTV 1080p][Catellano][VS] mega - Descargar película LaLiga - F.C Barcelona VS Atlético de Madrid (2018/19)[HDTV 1080p][Catellano][VS] Gratis - Descargar LaLiga - F.C Barcelona VS Atlético de Madrid (2018/19)[HDTV 1080p][Catellano][VS] uploaded - Descargar película LaLiga - F.C Barcelona VS Atlético de Madrid (2018/19)[HDTV 1080p][Catellano][VS] putlocker - Descargar película LaLiga - F.C Barcelona VS Atlético de Madrid (2018/19)[HDTV 1080p][Catellano][VS] mega - Descargar película LaLiga - F.C Barcelona VS Atlético de Madrid (2018/19)[HDTV 1080p][Catellano][VS] uploaded - Descargar película LaLiga - F.C Barcelona VS Atlético de Madrid (2018/19)[HDTV 1080p][Catellano][VS] 1 link gratis - Descargar LaLiga - F.C Barcelona VS Atlético de Madrid (2018/19)[HDTV 1080p][Catellano][VS] Blade Master 666 - Descargar LaLiga - F.C Barcelona VS Atlético de Madrid (2018/19)[HDTV 1080p][Catellano][VS] full - Descargar LaLiga - F.C Barcelona VS Atlético de Madrid (2018/19)[HDTV 1080p][Catellano][VS] facebook