Blademaster666 Descargas gratis

Descargar Lo que hacemos en las sombras (2019)[T.1][MicroHD 1080p][Castellano][2/10][2.7GB][VS] Gratis
Categoria: Series / Series en Curso

Agregado: 8-04-2019, 23:14

Descargado: : 155
Disponible Banner o Imagen


Lo que hacemos en las sombras (2019)[T.1][MicroHD 1080p][Castellano][2/10][2.7GB][VS]


Lo que hacemos en las sombras (2019)[T.1][MicroHD 1080p][Castellano][2/10][2.7GB][VS]



Título original What We Do in the Shadows
Año 2019
Duración 30 min.
País Estados Unidos
Dirección Jemaine Clement (Creator), Paul Simms (Creator), Taika Waititi, Jason Woliner
Guion Jemaine Clement, Stefani Robinson, Tom Scharpling
Fotografía DJ Stipsen, Christian Sprenger
Reparto Kayvan Novak, Matt Berry, Natasia Demetriou, Harvey Guillen, Doug Jones, Beanie Feldstein, Jake McDorman, Mark Proksch, Hayden Szeto, Veronika Slowikowska, Siobhan Fallon, Francesco Antonio Castaldo, Barbara de la Fuente, Michael Giel, Maury Ginsberg, Craig Henry, Samantha Madely, Michael Chow, Francis Melling, Richie Moriarty, Redd Ochoa, Rob Ramsay, Adrian Spencer, Kate Comer, Gloria Laino
Productora Defender Films / FX Network. Distribuida por FX Network
Género Serie de TV. Comedia. Terror | Comedia de terror. Vampiros. Falso documental





Calidad: MicroHD 1080p
Formato: MKV
Resolución: 1920x1080p
Video: AVC H264
Audio: Castellano AC3 5.1
Tamaño: 2,7 GB
Subtítulos: Forzados y Completos



MediaInfo:



General
Unique ID                   : 184201128599116766877896066279272432101 (0x8A93D8D0CA786E86BBEA00B6EF9141E5)
Complete name               : Lo.que.hacemos.en.las.sombras.1x01.1O8O.mkv
Format                      : Matroska
Format version              : Version 4 / Version 2
File size                   : 2.78 GiB
Duration                    : 28 min 59 s
Overall bit rate            : 13.7 Mb/s
Movie name                  : Lo.que.hacemos.en.las.sombras.1x01.1O8O.mkv
Encoded date                : UTC 2019-04-06 00:47:49
Writing application         : mkvmerge v16.0.0 ('Protest') 64-bit
Writing library             : libebml v1.3.5 + libmatroska v1.4.8

Video
ID                          : 1
Format                      : AVC
Format/Info                 : Advanced Video Codec
Format profile              : High@L4
Format settings             : CABAC / 4 Ref Frames
Format settings, CABAC      : Yes
Format settings, RefFrames  : 4 frames
Codec ID                    : V_MPEG4/ISO/AVC
Duration                    : 28 min 59 s
Bit rate                    : 13.3 Mb/s
Width                       : 1 920 pixels
Height                      : 1 080 pixels
Display aspect ratio        : 16:9
Frame rate mode             : Constant
Frame rate                  : 23.976 (24000/1001) FPS
Color space                 : YUV
Chroma subsampling          : 4:2:0
Bit depth                   : 8 bits
Scan type                   : Progressive
Bits/(Pixel*Frame)          : 0.268
Stream size                 : 2.69 GiB (97%)
Title                       : Lo.que.hacemos.en.las.sombras.1x01.1O8O.mkv
Language                    : English
Default                     : Yes
Forced                      : No
Color range                 : Limited
Color primaries             : BT.709
Transfer characteristics    : BT.709
Matrix coefficients         : BT.709

Audio
ID                          : 2
Format                      : AC-3
Format/Info                 : Audio Coding 3
Format settings, Endianness : Big
Codec ID                    : A_AC3
Duration                    : 28 min 32 s
Bit rate mode               : Constant
Bit rate                    : 448 kb/s
Channel(s)                  : 6 channels
Channel positions           : Front: L C R, Side: L R, LFE
Sampling rate               : 48.0 kHz
Frame rate                  : 31.250 FPS (1536 SPF)
Bit depth                   : 16 bits
Compression mode            : Lossy
Stream size                 : 91.4 MiB (3%)
Title                       : Lo.que.hacemos.en.las.sombras.1x01.1O8O.mkv
Language                    : Spanish
Service kind                : Complete Main
Default                     : Yes
Forced                      : No

Text #1
ID                          : 3
Format                      : UTF-8
Codec ID                    : S_TEXT/UTF8
Codec ID/Info               : UTF-8 Plain Text
Duration                    : 1 min 50 s
Bit rate                    : 3 b/s
Count of elements           : 2
Stream size                 : 49.0 Bytes (0%)
Title                       : Forzados
Language                    : Spanish
Default                     : Yes
Forced                      : Yes

Text #2
ID                          : 4
Format                      : UTF-8
Codec ID                    : S_TEXT/UTF8
Codec ID/Info               : UTF-8 Plain Text
Duration                    : 27 min 30 s
Bit rate                    : 84 b/s
Count of elements           : 437
Stream size                 : 17.0 KiB (0%)
Title                       : Completos
Language                    : Spanish
Default                     : No
Forced                      : No

Text #3
ID                          : 5
Format                      : UTF-8
Codec ID                    : S_TEXT/UTF8
Codec ID/Info               : UTF-8 Plain Text
Duration                    : 28 min 58 s
Bit rate                    : 93 b/s
Count of elements           : 696
Stream size                 : 19.8 KiB (0%)
Language                    : English
Default                     : No
Forced                      : No





Descomprimir con winrar, 7zip o programa similar.



Lo que hacemos en las sombras (2019)[T.1][MicroHD 1080p][Castellano][2/10][2.7GB][VS]



Ambientada en Nueva York, sigue a tres vampiros que han sido compañeros de piso durante cientos y cientos de años, y cuenta sus experiencias en ese periodo.



Lo que hacemos en las sombras (2019)[T.1][MicroHD 1080p][Castellano][2/10][2.7GB][VS]


Lo que hacemos en las sombras (2019)[T.1][MicroHD 1080p][Castellano][2/10][2.7GB][VS]


Descarga todo de un servidor FREE + 1 parte NO FREE

Para descargar tener abierto JDownloader v2, Mipony o programa similar


Lo que hacemos en las sombras (2019)[T.1][MicroHD 1080p][Castellano][2/10][2.7GB][VS]

Lo que hacemos en las sombras (2019)[T.1][MicroHD 1080p][Castellano][2/10][2.7GB][VS]

Lo que hacemos en las sombras (2019)[T.1][MicroHD 1080p][Castellano][2/10][2.7GB][VS]

Lo que hacemos en las sombras (2019)[T.1][MicroHD 1080p][Castellano][2/10][2.7GB][VS]
Lo que hacemos en las sombras (2019)[T.1][MicroHD 1080p][Castellano][2/10][2.7GB][VS]
Lo que hacemos en las sombras (2019)[T.1][MicroHD 1080p][Castellano][2/10][2.7GB][VS]
Lo que hacemos en las sombras (2019)[T.1][MicroHD 1080p][Castellano][2/10][2.7GB][VS]


1x01:

https://lupaste.com/?v=32244

1x02:

https://lupaste.com/?v=32245


Visita mi perfil para ver todos mis aportes


Lo que hacemos en las sombras (2019)[T.1][MicroHD 1080p][Castellano][2/10][2.7GB][VS]



disponible




Para Descargar Mas Rapido Te Recomiendo Comprar una Cuenta Premium
TAGS: Descargar Lo que hacemos en las sombras (2019)[T.1][MicroHD 1080p][Castellano][2/10][2.7GB][VS] Castellano - Descargar Lo que hacemos en las sombras (2019)[T.1][MicroHD 1080p][Castellano][2/10][2.7GB][VS] mega - Descargar Lo que hacemos en las sombras (2019)[T.1][MicroHD 1080p][Castellano][2/10][2.7GB][VS] en Mega - Descargar Lo que hacemos en las sombras (2019)[T.1][MicroHD 1080p][Castellano][2/10][2.7GB][VS] gratis - Descargar Lo que hacemos en las sombras (2019)[T.1][MicroHD 1080p][Castellano][2/10][2.7GB][VS] free - Descargar Lo que hacemos en las sombras (2019)[T.1][MicroHD 1080p][Castellano][2/10][2.7GB][VS] online - Descargar Lo que hacemos en las sombras (2019)[T.1][MicroHD 1080p][Castellano][2/10][2.7GB][VS] - Bajar Lo que hacemos en las sombras (2019)[T.1][MicroHD 1080p][Castellano][2/10][2.7GB][VS] por mega - Bajar película Lo que hacemos en las sombras (2019)[T.1][MicroHD 1080p][Castellano][2/10][2.7GB][VS] - descargar programa Lo que hacemos en las sombras (2019)[T.1][MicroHD 1080p][Castellano][2/10][2.7GB][VS] online - Descargar Comic Lo que hacemos en las sombras (2019)[T.1][MicroHD 1080p][Castellano][2/10][2.7GB][VS] castellano - Descargar Documental Lo que hacemos en las sombras (2019)[T.1][MicroHD 1080p][Castellano][2/10][2.7GB][VS] castellano - Bajar Curso Lo que hacemos en las sombras (2019)[T.1][MicroHD 1080p][Castellano][2/10][2.7GB][VS] subtitulos - Ver película Lo que hacemos en las sombras (2019)[T.1][MicroHD 1080p][Castellano][2/10][2.7GB][VS] original - Ver película Lo que hacemos en las sombras (2019)[T.1][MicroHD 1080p][Castellano][2/10][2.7GB][VS] vk - Ver película Lo que hacemos en las sombras (2019)[T.1][MicroHD 1080p][Castellano][2/10][2.7GB][VS] - Ver capítulo Lo que hacemos en las sombras (2019)[T.1][MicroHD 1080p][Castellano][2/10][2.7GB][VS] castellano - Ver capítulo Lo que hacemos en las sombras (2019)[T.1][MicroHD 1080p][Castellano][2/10][2.7GB][VS] español - Ver película Lo que hacemos en las sombras (2019)[T.1][MicroHD 1080p][Castellano][2/10][2.7GB][VS] español - Descargar Lo que hacemos en las sombras (2019)[T.1][MicroHD 1080p][Castellano][2/10][2.7GB][VS] gratis - Descargar Lo que hacemos en las sombras (2019)[T.1][MicroHD 1080p][Castellano][2/10][2.7GB][VS] mega - Ver película Lo que hacemos en las sombras (2019)[T.1][MicroHD 1080p][Castellano][2/10][2.7GB][VS] mega - Descargar película Lo que hacemos en las sombras (2019)[T.1][MicroHD 1080p][Castellano][2/10][2.7GB][VS] Gratis - Descargar Lo que hacemos en las sombras (2019)[T.1][MicroHD 1080p][Castellano][2/10][2.7GB][VS] uploaded - Descargar película Lo que hacemos en las sombras (2019)[T.1][MicroHD 1080p][Castellano][2/10][2.7GB][VS] putlocker - Descargar película Lo que hacemos en las sombras (2019)[T.1][MicroHD 1080p][Castellano][2/10][2.7GB][VS] mega - Descargar película Lo que hacemos en las sombras (2019)[T.1][MicroHD 1080p][Castellano][2/10][2.7GB][VS] uploaded - Descargar película Lo que hacemos en las sombras (2019)[T.1][MicroHD 1080p][Castellano][2/10][2.7GB][VS] 1 link gratis - Descargar Lo que hacemos en las sombras (2019)[T.1][MicroHD 1080p][Castellano][2/10][2.7GB][VS] Blade Master 666 - Descargar Lo que hacemos en las sombras (2019)[T.1][MicroHD 1080p][Castellano][2/10][2.7GB][VS] full - Descargar Lo que hacemos en las sombras (2019)[T.1][MicroHD 1080p][Castellano][2/10][2.7GB][VS] facebook