Blademaster666 Descargas gratis

Descargar Los Gipsy Kings (2019)[T.5][HDTV 720p][Castellano][Reality][01/--][1,7GB][VS] Gratis
Categoria: Series

Agregado: 14-03-2019, 07:21

Descargado: : 48
Disponible Banner o Imagen


Los Gipsy Kings (2019)[T.5][HDTV 720p][Castellano][Reality][01/--][1,7GB][VS]


Los Gipsy Kings (2019)[T.5][HDTV 720p][Castellano][Reality][01/--][1,7GB][VS]



Género Docu-reality
Narrador Teté Delgado
País de origen España
Idioma(s) Español
Productores La Competencia Producciones
Productores ejecutivos Mediaset España
Dirección Jacobo Eireos





Calidad: HDTV 720p
Formato: MKV
Resolución: 1280x720p
Video: AVC
Audio: Castellano AAC
Tamaño: 1,76 GB



MediaInfo:

[SPOILER]



General
Complete name               : C:\Users\User\Desktop\Los.Gipsy.Kings.72Op.5x01.mkv
Format                      : MPEG-4
Format profile              : Base Media
Codec ID                    : isom (isom/iso2/avc1/mp41)
File size                   : 1.76 GiB
Duration                    : 1 h 32 min
Overall bit rate mode       : Constant
Overall bit rate            : 2 731 kb/s
Writing application         : Lavf58.20.100
FileExtension_Invalid       : mov mp4 m4v m4a m4b m4p 3ga 3gpa 3gpp 3gp 3gpp2 3g2 k3g jpm jpx mqv ismv isma ismt f4a f4b f4v

Video
ID                          : 1
Format                      : AVC
Format/Info                 : Advanced Video Codec
Format profile              : Baseline@L3.1
Format settings             : 1 Ref Frames
Format settings, CABAC      : No
Format settings, RefFrames  : 1 frame
Codec ID                    : avc1
Codec ID/Info               : Advanced Video Coding
Duration                    : 1 h 32 min
Bit rate mode               : Constant
Bit rate                    : 2 600 kb/s
Width                       : 1 280 pixels
Height                      : 720 pixels
Display aspect ratio        : 16:9
Frame rate mode             : Constant
Frame rate                  : 25.000 FPS
Standard                    : PAL
Color space                 : YUV
Chroma subsampling          : 4:2:0
Bit depth                   : 8 bits
Scan type                   : Progressive
Bits/(Pixel*Frame)          : 0.113
Stream size                 : 1.68 GiB (95%)
Color range                 : Limited
Color primaries             : BT.601 PAL
Transfer characteristics    : BT.601
Matrix coefficients         : BT.470 System B, BT.470 System G

Audio
ID                          : 2
Format                      : AAC
Format/Info                 : Advanced Audio Codec
Format profile              : LC
Codec ID                    : mp4a-40-2
Duration                    : 1 h 32 min
Bit rate mode               : Constant
Bit rate                    : 126 kb/s
Channel(s)                  : 2 channels
Channel positions           : Front: L R
Sampling rate               : 44.1 kHz
Frame rate                  : 43.066 FPS (1024 SPF)
Compression mode            : Lossy
Stream size                 : 83.0 MiB (5%)
Default                     : Yes
Alternate group             : 1





[/SPOILER]



Descomprimir con winrar, 7zip o programa similar.



Los Gipsy Kings (2019)[T.5][HDTV 720p][Castellano][Reality][01/--][1,7GB][VS]



Los Gipsy Kings es un programa de televisión de la productora La Competencia Producciones para el canal de televisión Cuatro. Su estreno tuvo lugar el domingo, 8 de febrero de 2015.

TEMPORADA 5: Nada se les resiste y nos lo demostraron en la temporada pasada pero, ¿qué les deparará la próxima? Permanece atento porque el programa más loco de la televisión regresa muy pronto a Cuatro.



Los Gipsy Kings (2019)[T.5][HDTV 720p][Castellano][Reality][01/--][1,7GB][VS]


Los Gipsy Kings (2019)[T.5][HDTV 720p][Castellano][Reality][01/--][1,7GB][VS]



Descarga todo de un servidor FREE + 1 parte NO FREE

Para descargar es necesario tener abierto JDownloader v2, Mipony o programa similar


Los Gipsy Kings (2019)[T.5][HDTV 720p][Castellano][Reality][01/--][1,7GB][VS]

Los Gipsy Kings (2019)[T.5][HDTV 720p][Castellano][Reality][01/--][1,7GB][VS]

Los Gipsy Kings (2019)[T.5][HDTV 720p][Castellano][Reality][01/--][1,7GB][VS]

Los Gipsy Kings (2019)[T.5][HDTV 720p][Castellano][Reality][01/--][1,7GB][VS]
Los Gipsy Kings (2019)[T.5][HDTV 720p][Castellano][Reality][01/--][1,7GB][VS]
Los Gipsy Kings (2019)[T.5][HDTV 720p][Castellano][Reality][01/--][1,7GB][VS]
Los Gipsy Kings (2019)[T.5][HDTV 720p][Castellano][Reality][01/--][1,7GB][VS]


5x01:

https://lupaste.com/?v=31961


Visita mi perfil para ver todos mis aportes


Los Gipsy Kings (2019)[T.5][HDTV 720p][Castellano][Reality][01/--][1,7GB][VS]



disponible




Para Descargar Mas Rapido Te Recomiendo Comprar una Cuenta Premium
TAGS: Descargar Los Gipsy Kings (2019)[T.5][HDTV 720p][Castellano][Reality][01/--][1,7GB][VS] Castellano - Descargar Los Gipsy Kings (2019)[T.5][HDTV 720p][Castellano][Reality][01/--][1,7GB][VS] mega - Descargar Los Gipsy Kings (2019)[T.5][HDTV 720p][Castellano][Reality][01/--][1,7GB][VS] en Mega - Descargar Los Gipsy Kings (2019)[T.5][HDTV 720p][Castellano][Reality][01/--][1,7GB][VS] gratis - Descargar Los Gipsy Kings (2019)[T.5][HDTV 720p][Castellano][Reality][01/--][1,7GB][VS] free - Descargar Los Gipsy Kings (2019)[T.5][HDTV 720p][Castellano][Reality][01/--][1,7GB][VS] online - Descargar Los Gipsy Kings (2019)[T.5][HDTV 720p][Castellano][Reality][01/--][1,7GB][VS] - Bajar Los Gipsy Kings (2019)[T.5][HDTV 720p][Castellano][Reality][01/--][1,7GB][VS] por mega - Bajar película Los Gipsy Kings (2019)[T.5][HDTV 720p][Castellano][Reality][01/--][1,7GB][VS] - descargar programa Los Gipsy Kings (2019)[T.5][HDTV 720p][Castellano][Reality][01/--][1,7GB][VS] online - Descargar Comic Los Gipsy Kings (2019)[T.5][HDTV 720p][Castellano][Reality][01/--][1,7GB][VS] castellano - Descargar Documental Los Gipsy Kings (2019)[T.5][HDTV 720p][Castellano][Reality][01/--][1,7GB][VS] castellano - Bajar Curso Los Gipsy Kings (2019)[T.5][HDTV 720p][Castellano][Reality][01/--][1,7GB][VS] subtitulos - Ver película Los Gipsy Kings (2019)[T.5][HDTV 720p][Castellano][Reality][01/--][1,7GB][VS] original - Ver película Los Gipsy Kings (2019)[T.5][HDTV 720p][Castellano][Reality][01/--][1,7GB][VS] vk - Ver película Los Gipsy Kings (2019)[T.5][HDTV 720p][Castellano][Reality][01/--][1,7GB][VS] - Ver capítulo Los Gipsy Kings (2019)[T.5][HDTV 720p][Castellano][Reality][01/--][1,7GB][VS] castellano - Ver capítulo Los Gipsy Kings (2019)[T.5][HDTV 720p][Castellano][Reality][01/--][1,7GB][VS] español - Ver película Los Gipsy Kings (2019)[T.5][HDTV 720p][Castellano][Reality][01/--][1,7GB][VS] español - Descargar Los Gipsy Kings (2019)[T.5][HDTV 720p][Castellano][Reality][01/--][1,7GB][VS] gratis - Descargar Los Gipsy Kings (2019)[T.5][HDTV 720p][Castellano][Reality][01/--][1,7GB][VS] mega - Ver película Los Gipsy Kings (2019)[T.5][HDTV 720p][Castellano][Reality][01/--][1,7GB][VS] mega - Descargar película Los Gipsy Kings (2019)[T.5][HDTV 720p][Castellano][Reality][01/--][1,7GB][VS] Gratis - Descargar Los Gipsy Kings (2019)[T.5][HDTV 720p][Castellano][Reality][01/--][1,7GB][VS] uploaded - Descargar película Los Gipsy Kings (2019)[T.5][HDTV 720p][Castellano][Reality][01/--][1,7GB][VS] putlocker - Descargar película Los Gipsy Kings (2019)[T.5][HDTV 720p][Castellano][Reality][01/--][1,7GB][VS] mega - Descargar película Los Gipsy Kings (2019)[T.5][HDTV 720p][Castellano][Reality][01/--][1,7GB][VS] uploaded - Descargar película Los Gipsy Kings (2019)[T.5][HDTV 720p][Castellano][Reality][01/--][1,7GB][VS] 1 link gratis - Descargar Los Gipsy Kings (2019)[T.5][HDTV 720p][Castellano][Reality][01/--][1,7GB][VS] Blade Master 666 - Descargar Los Gipsy Kings (2019)[T.5][HDTV 720p][Castellano][Reality][01/--][1,7GB][VS] full - Descargar Los Gipsy Kings (2019)[T.5][HDTV 720p][Castellano][Reality][01/--][1,7GB][VS] facebook